~*~GruhLand~*~ Index du Forum

FAQFAQ RechercherRechercher MembresMembres GroupesGroupes S’enregistrerS’enregistrer
ProfilProfil Se connecter pour vérifier ses messages privésSe connecter pour vérifier ses messages privés ConnexionConnexion


Candydoll Tv Sonya M07 Video

Poster un nouveau sujet Répondre au sujet ~*~GruhLand~*~ Index du Forum -> Gruhland -> Musique
Sujet précédent :: Sujet suivant
Auteur Message
kailimall

Hors ligne

Inscrit le: 07 Avr 2016
Messages: 117
Localisation: Roma
Masculin
Point(s) des utilisateurs: 117
Moyenne de points: 1,00

MessagePosté le: Jeu 28 Avr 2016, 08:10 Sujet du message: Candydoll Tv Sonya M07 Video Répondre en citant




Candydoll Tv Sonya M07 Video > bit.ly/1rjIadb















































Candydoll Tv Sonya M07 Video

6f6ddb31bf
Sample info: Duration: 00:05:30.42, start: 3.000000, bitrate: 3230 kb/s Stream #0.0: Audio: wmav2, 48000 Hz, stereo, 128 kb/s Stream #0.1: Video: wmv3, yuv420p, 640x480 [PAR 1:1 DAR 4:3], 3000 kb/s, 30.00 tb(r) . CandyDoll tv Sonya M07 Video Torrents Video 127.24 Mb found 5 years ago seeders:0 leechers:2 your vote: real: 2 fake: 0 . download torrent Download Torrent from torcache.net Download Torrent with Magnet Link CandyDoll tv Sonya M07 Video torrent Information about the torrent CandyDoll tv Sonya M07 Video. torrent contents CandyDoll.tv Sonya-M07 Video.wmv torrent CandyDoll.tv Sonya-M07 Video.wmv127.24 Mb torrent search . Loading. comments/reviews anonymous 28 Jan 2015, 11:01:04 Candydoll-AliceL-Set001.rar f 140 . peerstorrent hash5996fe7cd60d92051e0f10a4cc6dc2076abba591 tracker seeders leechers udp://tracker.mg64.net:2710/announce014 hours agoudp://tracker.leechers-paradise.org:6969/announce016 hours ago days ago torrent client compatible list udp://tracker.leechers-paradise.org:6969/announce udp://tracker.mg64.net:2710/announce hide torrent client compatible list . Seeders, leechers and torrent status is updated everyday.If you want to download the video torrent CandyDoll tv Sonya M07 Video you will need a torrent client.

Torrent Metasearch.

Deuce Bigalow: Male Gigolo 2counter strike extreme zombie mod free download 4shared.com 1acoustica mixcraft 6Yoga: Gentle Vinyasa Flow with Zyrka Landwijtninja de la magia agustin tash-adds


Revenir en haut
Publicité





MessagePosté le: Jeu 28 Avr 2016, 08:10 Sujet du message: Publicité

PublicitéSupprimer les publicités ?
Revenir en haut
Montrer les messages depuis:
Poster un nouveau sujet Répondre au sujet ~*~GruhLand~*~ Index du Forum -> Gruhland -> Musique Toutes les heures sont au format GMT + 2 Heures
Page 1 sur 1


Sauter vers:  

Index | Panneau d’administration | créer un forum | Forum gratuit d’entraide | Annuaire des forums gratuits | Signaler une violation | Conditions générales d'utilisation
Powered by phpBB © 2001, 2018 phpBB Group
Traduction par : phpBB-fr.com
Template eRed by Curucu